Movies - Other

Silent Hill 2006 1080p BluRay x264-FSiHD mkv

  • Download Faster
  • Download torrent
  • Direct Download
  • Rate this torrent +  |  -
Silent Hill 2006 1080p BluRay x264-FSiHD mkv

Download Anonymously! Get Protected Today And Get your 70% discount


Torrent info

Name:Silent Hill 2006 1080p BluRay x264-FSiHD mkv

Infohash: E6EBA1427604E9304C08D68BEE7A22209F775BFF

Total Size: 10.94 GB

Seeds: 4

Leechers: 1

Stream: Watch Full Movie @ Movie4u

Last Updated: 0000-00-00 00:00:00 (Update Now)

Torrent added: 2012-08-28 20:35:49






Torrent Files List


 

Announce URL: http://tracker.thepiratebay.org/announce

Torrent description

Video
ID : 1
Format : AVC
Format/Info : Advanced Video Codec
Format profile : [email protected]
Format settings, CABAC : Yes
Format settings, ReFrames : 5 frames
Codec ID : V_MPEG4/ISO/AVC
Duration : 2h 5mn
Bit rate : 11.8 Mbps
Width : 1 920 pixels
Height : 824 pixels
Display aspect ratio : 2.35:1
Frame rate : 23.976 fps
Color space : YUV
Chroma subsampling : 4:2:0
Bit depth : 8 bits
Scan type : Progressive
Bits/(Pixel*Frame) : 0.312
Stream size : 10.2 GiB (93%)
Writing library : x264 core 67 r1153



Audio
ID : 2
Format : AC-3
Format/Info : Audio Coding 3
Mode extension : CM (complete main)
Format settings, Endianness : Big
Codec ID : A_AC3
Duration : 2h 5mn
Bit rate mode : Constant
Bit rate : 640 Kbps
Channel(s) : 6 channels
Channel positions : Front: L C R, Side: L R, LFE
Sampling rate : 48.0 KHz
Bit depth : 16 bits
Compression mode : Lossy
Stream size : 575 MiB (5%)
Language : English
Default : Yes
Forced : No

related torrents

Torrent name

health leech seeds Size
 


comments (0)

Main Menu