Movies - Other

Iron Man 2013 R6 LINE NEW AUDIO AAC x264-SSDD Version 2

  • Download Faster
  • Download torrent
  • Direct Download
  • Rate this torrent +  |  -
Iron Man 2013 R6 LINE NEW AUDIO AAC x264-SSDD Version 2

Download Anonymously! Get Protected Today And Get your 70% discount


Torrent info

Name: Iron Man 2013 R6 LINE NEW AUDIO AAC x264-SSDD Version 2

Infohash: B966013D4C6AE57F33783E5D823CA1862B97C61E

Total Size: 601.48 MB

Seeds: 0

Leechers: 0

Stream: Watch Full Movie @ Movie4u

Last Updated: 2016-02-04 13:16:47 (Update Now)

Torrent added: 2013-05-12 18:34:03






Torrent Files List


 

tracker

leech seeds
 

Torrent description

IMDB Link - http://www.imdb.com/title/tt1300854/

Source - Iron Man 2013 R6 LINE Xvid NEW AUDIO READ NFO UnKnOwN

NOTES - Enjoy. This is a version 2 with better audio from the Unknown source mentioned above.

General
Complete name : Iron Man 2013 R6 LINE NEW AUDIO AAC x264-SSDD Version 2.mp4
Format : MPEG-4
Format profile : Base Media
Codec ID : isom
File size : 600 MiB
Duration : 2h 2mn
Overall bit rate mode : Variable
Overall bit rate : 688 Kbps

Video
ID : 1
Format : AVC
Format/Info : Advanced Video Codec
Format profile : [email protected]
Format settings, CABAC : Yes
Format settings, ReFrames : 4 frames
Codec ID : avc1
Codec ID/Info : Advanced Video Coding
Duration : 2h 2mn
Bit rate : 620 Kbps
Maximum bit rate : 2 019 Kbps
Width : 700 pixels
Height : 294 pixels
Display aspect ratio : 2.40:1
Frame rate mode : Constant
Frame rate : 29.970 fps
Color space : YUV
Chroma subsampling : 4:2:0
Bit depth : 8 bits
Scan type : Progressive
Bits/(Pixel*Frame) : 0.101
Stream size : 542 MiB (90%)
Writing library : x264 core 130 r2273 b3065e6

Audio
ID : 2
Format : AAC
Format/Info : Advanced Audio Codec
Format profile : LC
Codec ID : 40
Duration : 2h 2mn
Bit rate mode : Variable
Bit rate : 64.0 Kbps
Maximum bit rate : 67.6 Kbps
Channel(s) : 2 channels
Channel positions : Front: L R
Sampling rate : 48.0 KHz
Compression mode : Lossy
Stream size : 55.9 MiB (9%)



http://imgbox.com/g/PUPwx7daNI

related torrents

Torrent name

health leech seeds Size
 


comments (0)

Main Menu