TV - Other

Ben 10 ultimate alein epsode 01 - Fame mkv

  • Download Faster
  • Download torrent
  • Direct Download
  • Rate this torrent +  |  -
Ben 10 ultimate alein epsode 01 - Fame mkv

Download Anonymously! Get Protected Today And Get your 70% discount


Torrent info

Name:Ben 10 ultimate alein epsode 01 - Fame mkv

Infohash: 14DA27494A4667F2BE04D0152D833AC05AF1126F

Total Size: 198.20 MB

Seeds: 0

Leechers: 3

Stream: Watch Full Movie @ Movie4u

Last Updated: 2013-07-02 15:36:59 (Update Now)

Torrent added: 2013-07-02 15:36:59






Torrent Files List


 

Announce URL: http://tracker.thepiratebay.org/announce

Torrent description

Info
General

Format : Matroska
Format version : Version 4 / Version 2
File size : 198 MiB
Duration : 22mn 30s
Overall bit rate : 1 231 Kbps
Encoded date : UTC 2013-06-30 14:41:42
Writing application : mkvmerge v6.3.0 (You cant stop me!) built on Jun 28 2013 20:09:41
Writing library : Lavf52.82.0

Video
ID : 1
Format : MPEG-4 Visual
Format profile : [email protected]
Format settings, BVOP : No
Format settings, QPel : No
Format settings, GMC : No warppoints
Format settings, Matrix : Default (H.263)
Codec ID : V_MPEG4/ISO/ASP
Codec ID/Info : Advanced Simple Profile
Bit rate : 950 Kbps
Width : 640 pixels
Height : 480 pixels
Display aspect ratio : 4:3
Frame rate mode : Variable
Color space : YUV
Chroma subsampling : 4:2:0
Bit depth : 8 bits
Scan type : Progressive
Compression mode : Lossy
Default : Yes
Forced : No

Audio #1
ID : 2
Format : MPEG Audio
Format version : Version 1
Format profile : Layer 3
Mode : Joint stereo
Mode extension : MS Stereo
Codec ID : A_MPEG/L3
Codec ID/Hint : MP3
Duration : 22mn 30s
Bit rate mode : Constant
Bit rate : 128 Kbps
Channel(s) : 2 channels
Sampling rate : 44.1 KHz
Compression mode : Lossy
Stream size : 20.6 MiB (10%)
Default : Yes
Forced : No

Audio #2
ID : 3
Format : MPEG Audio
Format version : Version 1
Format profile : Layer 3
Mode : Joint stereo
Mode extension : MS Stereo
Codec ID : A_MPEG/L3
Codec ID/Hint : MP3
Duration : 22mn 30s
Bit rate mode : Constant
Bit rate : 128 Kbps
Channel(s) : 2 channels
Sampling rate : 44.1 KHz
Compression mode : Lossy
Stream size : 20.6 MiB (10%)
Default : No
Forced : No


Screens
Ben 10 ultimate alein epsode 01 - Fame mkv preview 0

Ben 10 ultimate alein epsode 01 - Fame mkv preview 1

Ben 10 ultimate alein epsode 01 - Fame mkv preview 2

Ben 10 ultimate alein epsode 01 - Fame mkv preview 3

Ben 10 ultimate alein epsode 01 - Fame mkv preview 4

Ben 10 ultimate alein epsode 01 - Fame mkv preview 5

Ben 10 ultimate alein epsode 01 - Fame mkv preview 6

related torrents

Torrent name

health leech seeds Size
 


comments (0)

Main Menu