Movies - Other

Penthouse 05 01 01 Pet Of The Year Winner 2000 WEBRiP XXX 720p WMV-TBP[rarbg]

  • Download Faster
  • Download torrent
  • Direct Download
  • Rate this torrent +  |  -
Penthouse 05 01 01 Pet Of The Year Winner 2000 WEBRiP XXX 720p WMV-TBP[rarbg]

Download Anonymously! Get Protected Today And Get your 70% discount


Torrent info

Name:Penthouse 05 01 01 Pet Of The Year Winner 2000 WEBRiP XXX 720p WMV-TBP[rarbg]

Infohash: C19671482344CEC2680D3FC10EAC4B254FBD0CA5

Total Size: 2.63 GB

Seeds: 0

Leechers: 10

Stream: Watch Full Movie @ Movie4u

Last Updated: 2017-09-29 06:54:41 (Update Now)

Torrent added: 2013-12-23 04:35:30






Torrent Files List


RARBG.com.txt (Size: 2.63 GB) (Files: 4)

 RARBG.com.txt

0.03 KB

 Sample

  tbp-ph.050101petyearwinner2k_sample.wmv

39.50 MB

 tbp-ph.050101petyearwinner2k.nfo

0.53 KB

 tbp-ph.050101petyearwinner2k.wmv

2.59 GB
 

Announce URL:

Torrent description

=======================================================
==== w w w . t h e p i r a t e f i l m e s . c o m ====
=======================================================

IMDb : http://www.imdb.com/title/tt3034258/ Nota: 5.9


Dados do Filme:

Titulo: Meu Passado Me Condena - O Filme
Ano: 2013
Genero: Comédia
Tamanho: 1.66 GB
Formato: MP4
Duração: 01:42:19
Qualidade: 1080p (Full HD)
Resolução: 1920 x 1080
Idioma: Português Br
Release By: ToTTi9
Encode By: ToTTi9


Sinopse: Quando Fábio (Fábio Porchat) e Miá (Miá Mello) se encontram, é amor à primeira vista. Eles se casam um mês depois de se conhecerem e decidem viajar à Europa em um cruzeiro em lua de mel. Só que, durante a viagem, eles encontram seus antigos namorados, Beto (Alejandro Claveaux) e Laura (Juliana Didone), que hoje estão juntos e também passam sua lua de mel.



Dados do Arquivo:

Format : MPEG-4
Format profile : Base Media / Version 2
Codec ID : mp42
File size : 1.66 GiB
Duration : 1h 42mn
Overall bit rate mode : Variable
Overall bit rate : 2 329 Kbps

Video
ID : 1
Format : AVC
Format/Info : Advanced Video Codec
Format profile : [email protected]
Format settings, CABAC : Yes
Format settings, ReFrames : 6 frames
Codec ID : avc1
Codec ID/Info : Advanced Video Coding
Duration : 1h 42mn
Bit rate : 2 100 Kbps
Width : 1 920 pixels
Height : 1 080 pixels
Display aspect ratio : 16:9
Frame rate mode : Variable
Frame rate : 23.976 fps
Minimum frame rate : 23.974 fps
Maximum frame rate : 23.981 fps
Color space : YUV
Chroma subsampling : 4:2:0
Bit depth : 8 bits
Scan type : Progressive
Bits/(Pixel*Frame) : 0.042
Stream size : 1.50 GiB (90%)
Writing library : x264

Audio
ID : 2
Format : AAC
Format/Info : Advanced Audio Codec
Format profile : LC
Codec ID : 40
Duration : 1h 42mn
Bit rate mode : Variable
Bit rate : 224 Kbps
Maximum bit rate : 360 Kbps
Channel(s) : 6 channels
Channel positions : Front: L C R, Side: L R, LFE
Sampling rate : 48.0 KHz
Compression mode : Lossy
Stream size : 164 MiB



Visitem:

=======================================================
==== w w w . t h e p i r a t e f i l m e s . c o m ====
=======================================================

related torrents

Torrent name

health leech seeds Size
 


comments (0)

Main Menu