Movies - Other

Seduto alla sua destra AKA Black Jesus 1968 DVDRip x264 mkv

  • Download Faster
  • Download torrent
  • Direct Download
  • Rate this torrent +  |  -
Seduto alla sua destra AKA Black Jesus 1968 DVDRip x264 mkv

Download Anonymously! Get Protected Today And Get your 70% discount


Torrent info

Name:Seduto alla sua destra AKA Black Jesus 1968 DVDRip x264 mkv

Infohash: EBA9508D242626A0E2799D77E6DA029C2FC7A9E7

Total Size: 1.43 GB

Seeds: 0

Leechers: 4

Stream: Watch Full Movie @ Movie4u

Last Updated: 2022-01-05 21:36:42 (Update Now)

Torrent added: 2013-12-23 19:34:32






Torrent Files List


 

Announce URL:

Torrent description

A thinly-disguised biography of African leader Patrice Lumumba, here called Lalubi. Lalubi, a Christ-like leader determined to save his people, by passive resistance, from the dictatorial regime propped up by European colonialists, is imprisoned and tortured, along with a thief who comes to a greater understanding through his contact with Lalubi.

General
Unique ID : 17082111103434501816895959264638273873 (0xCD9E51A0CDDD3A2A0896C488DDC0951)
Complete name : Seduto.alla.sua.destra.AKA.Black.Jesus.1968.DVDRip.x264.mkv
Format : Matroska
Format version : Version 2
File size : 1.43 GiB
Duration : 1h 25mn
Overall bit rate : 2 398 Kbps
Writing application : HandBrake 0.9.9
Writing library : libmkv 0.6.5

Video
ID : 1
Format : AVC
Format/Info : Advanced Video Codec
Format profile : [email protected]
Format settings, CABAC : Yes
Format settings, ReFrames : 11 frames
Codec ID : V_MPEG4/ISO/AVC
Duration : 1h 25mn
Bit rate : 2 200 Kbps
Width : 698 pixels
Height : 268 pixels
Display aspect ratio : 2.35:1
Original display aspect ratio : 2.35:1
Frame rate mode : Constant
Frame rate : 23.976 fps
Color space : YUV
Chroma subsampling : 4:2:0
Bit depth : 8 bits
Scan type : Progressive
Bits/(Pixel*Frame) : 0.491
Stream size : 1.29 GiB (90%)
Writing library : x264 core 130 r2273 b3065e6
Encoding settings : cabac=1 / ref=11 / deblock=1:-2:-2 / analyse=0x3:0x133 / me=umh / subme=11 / psy=1 / psy_rd=1.05:0.00 / mixed_ref=1 / me_range=32 / chroma_me=1 / trellis=2 / 8x8dct=1 / cqm=0 / deadzone=21,11 / fast_pskip=0 / chroma_qp_offset=-2 / threads=12 / lookahead_threads=2 / sliced_threads=0 / nr=0 / decimate=1 / interlaced=0 / bluray_compat=0 / constrained_intra=0 / bframes=9 / b_pyramid=2 / b_adapt=2 / b_bias=0 / direct=3 / weightb=1 / open_gop=0 / weightp=2 / keyint=240 / keyint_min=24 / scenecut=40 / intra_refresh=0 / rc_lookahead=60 / rc=abr / mbtree=1 / bitrate=2200 / ratetol=1.0 / qcomp=0.60 / qpmin=0 / qpmax=69 / qpstep=4 / ip_ratio=1.40 / aq=2:1.00
Language : English
Default : Yes
Forced : No
Color primaries : BT.601 NTSC
Transfer characteristics : BT.709
Matrix coefficients : BT.601

Audio
ID : 2
Format : AC-3
Format/Info : Audio Coding 3
Mode extension : CM (complete main)
Format settings, Endianness : Big
Codec ID : A_AC3
Duration : 1h 25mn
Bit rate mode : Constant
Bit rate : 192 Kbps
Channel(s) : 2 channels
Channel positions : Front: L R
Sampling rate : 48.0 KHz
Bit depth : 16 bits
Compression mode : Lossy
Stream size : 118 MiB (8%)
Language : Italian
Default : Yes
Forced : No

related torrents

Torrent name

health leech seeds Size
 


comments (0)

Main Menu