Movies - Other

Requiem for a Vampire 1971 720p-CG mkv

  • Download Faster
  • Download torrent
  • Direct Download
  • Rate this torrent +  |  -
Requiem for a Vampire 1971 720p-CG mkv

Download Anonymously! Get Protected Today And Get your 70% discount


Torrent info

Name:Requiem for a Vampire 1971 720p-CG mkv

Infohash: 9811696328263B26BF2787393D9EF0F33E30CD90

Total Size: 4.38 GB

Seeds: 1

Leechers: 1

Stream: Watch Full Movie @ Movie4u

Last Updated: 0000-00-00 00:00:00 (Update Now)

Torrent added: 2013-12-25 15:36:26






Torrent Files List


 

Announce URL: http://tracker.thepiratebay.org/announce

Torrent description

Eloquent, expressive and altogether haunting, Jean Rollins fourth feature film,
1971s Vierges et Vampires (Requiem for a Vampire) shows him as an artist totally in control of his own art and totally separate from anyone else in cinema before or since.

Rollin admitted in his introduction to Requiem for a Vampire in Virgins and Vampires that by 1971 he was, used to the critics insults, the public outcry and that with the film he, started shooting for (his own) personal pleasure exclusively since the others had rejected his past works. Its that striking spirit of independence that finds its way into every frame of Requiem for a Vampire, a totally secure and confident work that has our guy making one of the purest Jean Rollin films imaginable.

Inspired by the paintings by Paul Delvaux, and working with a young but stylish cinematographer named Renon Polles, Jean Rollin injects every frame of Requiem for a Vampire with a striking and languid authority. Not in a hurry and delighting in capturing moments that other filmmakers would scoff at, Jean Rollin has by this point totally perfected the deliberately slow and mesmerizing pace that so many of his fans have come to worship and revere over the years. The director himself would state in Encores booklet about his most childish and personal film that he was beginning to obtain a certain authority in his command of the medium, and its not a stretch to say that every film he has made since owes at least something to the evocative images of Marie-Pierre Castel and Mireille Dargent running from something unseen throughout this, one of his most iconic and necessary works.

{...} (Fascination: The Jean Rollin Experience).

Rip specs:

Format : Matroska
Format version : Version 2
File size : 4.38 GiB
Duration : 1h 26mn
Overall bit rate : 7 205 Kbps
Movie name : Vierges.et.Vampires.1971.720p.Bluray
Encoded date : UTC 2013-05-11 15:24:47
Writing application : mkvmerge v5.8.0 (No Sleep / Pillow) built on Sep 2 2012 15:37:04
Writing library : libebml v1.2.3 + libmatroska v1.3.0

Video
ID : 1
Format : AVC
Format/Info : Advanced Video Codec
Format profile : [email protected]
Format settings, CABAC : Yes
Format settings, ReFrames : 9 frames
Codec ID : V_MPEG4/ISO/AVC
Duration : 1h 26mn
Bit rate : 6 432 Kbps
Width : 1 200 pixels
Height : 720 pixels
Display aspect ratio : 1.667
Frame rate mode : Constant
Frame rate : 23.976 fps
Color space : YUV
Chroma subsampling : 4:2:0
Bit depth : 8 bits
Scan type : Progressive
Bits/(Pixel*Frame) : 0.310
Stream size : 3.82 GiB (87%)
Writing library : x264 core 132 r2309kMod 3b1f1f7
Encoding settings : cabac=1 / ref=9 / deblock=1:-3:-3 / analyse=0x3:0x133 / me=umh / subme=10 / psy=1 / fade_compensate=0.00 / psy_rd=1.10:0.15 / mixed_ref=1 / me_range=32 / chroma_me=1 / trellis=2 / 8x8dct=1 / cqm=0 / deadzone=21,11 / fast_pskip=1 / chroma_qp_offset=-3 / threads=6 / lookahead_threads=1 / sliced_threads=0 / nr=0 / decimate=0 / interlaced=0 / bluray_compat=0 / constrained_intra=0 / bframes=11 / b_pyramid=2 / b_adapt=2 / b_bias=0 / direct=3 / weightb=1 / open_gop=0 / weightp=2 / keyint=240 / keyint_min=23 / scenecut=40 / intra_refresh=0 / rc=2pass / mbtree=0 / bitrate=6432 / ratetol=1.0 / qcomp=0.60 / qpmin=0 / qpmax=69 / qpstep=4 / cplxblur=20.0 / qblur=0.5 / ip_ratio=1.40 / pb_ratio=1.30 / aq=1:0.80
Language : French
Default : Yes
Forced : No

Audio #1
ID : 2
Format : DTS
Format/Info : Digital Theater Systems
Mode : 16
Format settings, Endianness : Big
Codec ID : A_DTS
Duration : 1h 26mn
Bit rate mode : Constant
Bit rate : 384 Kbps
Channel(s) : 2 channels
Channel positions : Front: L R
Sampling rate : 48.0 KHz
Bit depth : 16 bits
Compression mode : Lossy
Stream size : 239 MiB (5%)
Language : French
Default : Yes
Forced : No

Audio #2
ID : 3
Format : DTS
Format/Info : Digital Theater Systems
Mode : 16
Format settings, Endianness : Big
Codec ID : A_DTS
Duration : 1h 26mn
Bit rate mode : Constant
Bit rate : 384 Kbps
Channel(s) : 2 channels
Channel positions : Front: L R
Sampling rate : 48.0 KHz
Bit depth : 16 bits
Compression mode : Lossy
Stream size : 239 MiB (5%)
Language : English
Default : No
Forced : No

Text #1
ID : 4
Format : UTF-8
Codec ID : S_TEXT/UTF8
Codec ID/Info : UTF-8 Plain Text
Title : SRT
Language : English
Default : No
Forced : No

Text #2
ID : 5
Format : PGS
Muxing mode : zlib
Codec ID : S_HDMV/PGS
Codec ID/Info : The same subtitle format used on BDs/HD-DVDs
Title : PGS
Language : English
Default : No
Forced : No

Menu
00:00:00.000 : en:00:00:00.000
00:08:38.435 : en:00:08:38.435
00:19:33.964 : en:00:19:33.964
00:27:14.925 : en:00:27:14.925
00:35:39.637 : en:00:35:39.637
00:42:44.437 : en:00:42:44.437
00:49:36.098 : en:00:49:36.098
01:00:26.331 : en:01:00:26.331
01:06:42.498 : en:01:06:42.498
01:17:17.258 : en:01:17:17.258



related torrents

Torrent name

health leech seeds Size
 


comments (0)

Main Menu