Music Videos

Britney Spears - Till The World Ends [Music Video] 1080p [Sbyky] MP4

  • Download Faster
  • Download torrent
  • Direct Download
  • Rate this torrent +  |  -
Britney Spears - Till The World Ends [Music Video] 1080p [Sbyky] MP4

Download Anonymously! Get Protected Today And Get your 70% discount


Torrent info

Name:Britney Spears - Till The World Ends [Music Video] 1080p [Sbyky] MP4

Infohash: 23D3B7527BBA2D8E322D57122DD5B60293E3BB1C

Total Size: 113.79 MB

Seeds: 0

Leechers: 0

Stream: Watch Full Movie @ Movie4u

Last Updated: 0000-00-00 00:00:00 (Update Now)

Torrent added: 2014-02-05 04:34:21






Torrent Files List


Britney Spears - Till The World Ends [Music Video] 1080p [Sbyky].MP4 (Size: 113.79 MB) (Files: 1)

 Britney Spears - Till The World Ends [Music Video] 1080p [Sbyky].MP4

113.79 MB
 

Announce URL:

Torrent description



General
Complete name : Britney Spears - Till The World Ends [Music Video] 1080p [Sbyky].MP4
Format : MPEG-4
Format profile : Base Media
Codec ID : isom
File size : 114 MiB
Duration : 3mn 56s
Overall bit rate mode : Variable
Overall bit rate : 4 043 Kbps
Encoded date : UTC 2013-12-03 05:58:24
Tagged date : UTC 2013-12-03 05:58:24

Video
ID : 1
Format : AVC
Format/Info : Advanced Video Codec
Format profile : [email protected]
Format settings, CABAC : Yes
Format settings, ReFrames : 3 frames
Codec ID : avc1
Codec ID/Info : Advanced Video Coding
Duration : 3mn 56s
Duration_LastFrame : -41ms
Bit rate : 3 915 Kbps
Width : 1 920 pixels
Height : 1 080 pixels
Display aspect ratio : 16:9
Frame rate mode : Constant
Frame rate : 23.976 fps
Color space : YUV
Chroma subsampling : 4:2:0
Bit depth : 8 bits
Scan type : Progressive
Bits/(Pixel*Frame) : 0.079
Stream size : 110 MiB (97%)
Encoded date : UTC 2013-12-03 05:58:24
Tagged date : UTC 2013-12-03 05:58:24

Audio
ID : 2
Format : AAC
Format/Info : Advanced Audio Codec
Format profile : LC
Codec ID : 40
Duration : 3mn 56s
Bit rate mode : Variable
Bit rate : 126 Kbps
Channel(s) : 2 channels
Channel positions : Front: L R
Sampling rate : 44.1 KHz
Compression mode : Lossy
Delay relative to video : 42ms
Stream size : 3.53 MiB (3%)
Encoded date : UTC 2013-12-03 05:57:07
Tagged date : UTC 2013-12-03 05:57:07

Shared By Sbyky

related torrents

Torrent name

health leech seeds Size
 


comments (0)

Main Menu