Other

JulesJordan 10 06 14 Amy Brooke Anal Probing By A Big Black Cock XXX SD MP4 DV3

  • Download Faster
  • Download torrent
  • Direct Download
  • Rate this torrent +  |  -
JulesJordan 10 06 14 Amy Brooke Anal Probing By A Big Black Cock XXX SD MP4 DV3

Download Anonymously! Get Protected Today And Get your 70% discount


Torrent info

Name:JulesJordan 10 06 14 Amy Brooke Anal Probing By A Big Black Cock XXX SD MP4 DV3

Infohash: EEF1C28A034819E167B781C1605587B4083D807A

Total Size: 223.03 MB

Seeds: 0

Leechers: 0

Stream: Watch Full Movie @ Movie4u

Last Updated: 2022-01-19 16:06:28 (Update Now)

Torrent added: 2014-06-10 14:34:11






Torrent Files List


RARBG.com.txt (Size: 223.03 MB) (Files: 4)

 RARBG.com.txt

0.03 KB

 another.azz.creation.scene.4.sd.mp4

222.45 MB

 poster.jpg

473.45 KB

 screens.jpg

121.88 KB
 

tracker

leech seeds
 

Torrent description

Screens:

http://bayimg.com/eaoIDAaFk


General
Complete name /another.azz.creation.scene.4.sd.mp4
Format : MPEG-4
Format profile : Base Media
Codec ID : isom
File size : 222 MiB
Duration : 28mn 48s
Overall bit rate : 1 079 Kbps
Encoded date : UTC 2014-04-29 18:28:53
Tagged date : UTC 2014-04-29 18:28:53
Writing application : Lavf53.24.2

Video
ID : 1
Format : AVC
Format/Info : Advanced Video Codec
Format profile : [email protected]
Format settings, CABAC : Yes
Format settings, ReFrames : 3 frames
Codec ID : avc1
Codec ID/Info : Advanced Video Coding
Duration : 28mn 48s
Bit rate : 1 000 Kbps
Width : 640 pixels
Height : 360 pixels
Display aspect ratio : 16:9
Frame rate mode : Constant
Frame rate : 29.970 fps
Color space : YUV
Chroma subsampling : 4:2:0
Bit depth : 8 bits
Scan type : Progressive
Bits/(Pixel*Frame) : 0.145
Stream size : 207 MiB (93%)
Writing library : x264 core 124 r2197 69a0443
Encoding settings : cabac=1 / ref=3 / deblock=1:0:0 / analyse=0x1:0x111 / me=hex / subme=5 / psy=0 / mixed_ref=0 / me_range=16 / chroma_me=1 / trellis=1 / 8x8dct=0 / cqm=0 / deadzone=21,11 / fast_pskip=1 / chroma_qp_offset=0 / threads=12 / sliced_threads=0 / nr=0 / decimate=1 / interlaced=0 / bluray_compat=0 / constrained_intra=0 / bframes=3 / b_pyramid=0 / b_adapt=1 / b_bias=0 / direct=1 / weightb=0 / open_gop=0 / weightp=2 / keyint=300 / keyint_min=29 / scenecut=40 / intra_refresh=0 / rc=abr / mbtree=0 / bitrate=1000 / ratetol=1.0 / qcomp=0.60 / qpmin=10 / qpmax=51 / qpstep=4 / ip_ratio=1.40 / pb_ratio=1.30 / aq=1:1.00
Encoded date : UTC 2014-04-29 18:28:53
Tagged date : UTC 2014-04-29 18:28:53

Audio
ID : 2
Format : AAC
Format/Info : Advanced Audio Codec
Format profile : LC
Codec ID : 40
Duration : 28mn 48s
Bit rate mode : Constant
Bit rate : 64.2 Kbps
Channel(s) : 2 channels
Channel positions : Front: L R
Sampling rate : 48.0 KHz
Compression mode : Lossy
Delay relative to video : -1s 1ms
Stream size : 13.2 MiB (6%)
Encoded date : UTC 2014-04-29 18:28:53
Tagged date : UTC 2014-04-29 18:28:53

related torrents

Torrent name

health leech seeds Size
 


comments (0)

Main Menu