TV - Other

Gravity Falls S02E06 Little Gift Shop of Horrors 720p WEB-DL AAC2 0 H 264-Tailors mp4

  • Download Faster
  • Download torrent
  • Direct Download
  • Rate this torrent +  |  -
Gravity Falls S02E06 Little Gift Shop of Horrors 720p WEB-DL AAC2 0 H 264-Tailors mp4

Download Anonymously! Get Protected Today And Get your 70% discount


Torrent info

Name:Gravity Falls S02E06 Little Gift Shop of Horrors 720p WEB-DL AAC2 0 H 264-Tailors mp4

Infohash: 83395C48A3DB2B7C21C11116FC2B7FBC641D6698

Total Size: 543.38 MB

Seeds: 10

Leechers: 0

Stream: Watch Full Movie @ Movie4u

Last Updated: 2015-09-07 00:51:53 (Update Now)

Torrent added: 2014-10-05 14:34:08






Torrent Files List


 

tracker

leech seeds
 

Torrent description


Twin brother and sister Dipper and Mabel Pines are back in the mysterious town of Gravity Falls for more strange adventures. Having defeated Gideon, the twins return to Grunkle Stan’s Mystery Shack to try to get things back to normal. But nothing is ever normal in this town! The Pines twins dig deeper than ever to learn the secret history of Journal #3’s unknown author, while Stan works on a secret project that could change everything in the basement of the Mystery Shack.


Dipper and Mabel are taken outside of the Gravity Falls norm.

---------------------------------------------------------------------------

Video
ID : 2
Format : AVC
Format/Info : Advanced Video Codec
Format profile : [email protected]
Format settings, CABAC : No
Format settings, ReFrames : 2 frames
Codec ID : avc1
Codec ID/Info : Advanced Video Coding
Duration : 22mn 6s
Bit rate : 3 277 Kbps
Maximum bit rate : 13.0 Mbps
Width : 1 280 pixels
Height : 720 pixels
Display aspect ratio : 16:9
Frame rate mode : Constant
Frame rate : 23.976 fps
Color space : YUV
Chroma subsampling : 4:2:0
Bit depth : 8 bits
Scan type : Progressive
Bits/(Pixel*Frame) : 0.148
Stream size : 518 MiB (95%)
Language : English
Encoded date : UTC 2014-10-04 10:10:52
Tagged date : UTC 2014-10-05 12:39:49
Color primaries : BT.709
Transfer characteristics : BT.709
Matrix coefficients : BT.709

Audio
ID : 1
Format : AAC
Format/Info : Advanced Audio Codec
Format profile : LC
Codec ID : 40
Duration : 22mn 6s
Bit rate mode : Variable
Bit rate : 154 Kbps
Maximum bit rate : 268 Kbps
Channel(s) : 2 channels
Channel positions : Front: L R
Sampling rate : 48.0 KHz
Compression mode : Lossy
Stream size : 24.3 MiB (4%)
Language : English
Encoded date : UTC 2014-10-05 12:39:28
Tagged date : UTC 2014-10-05 12:39:49

Text
ID : 3
Format : Timed Text
Codec ID : tx3g
Duration : 22mn 3s
Bit rate mode : Variable
Bit rate : 143 bps
Stream size : 23.1 KiB (0%)
Encoded date : UTC 2014-10-05 12:39:49
Tagged date : UTC 2014-10-05 12:39:49


Unfortunately, I may not be able to upload torrent until 2015.01.01.
Sorry for Downloaders.

Thanks.

related torrents

Torrent name

health leech seeds Size
 


comments (0)

Main Menu