Movies - Other

Teenage Mutant Ninja Turtles 3D 2014 1080p HSBS BRRip x264 Hun Eng

  • Download Faster
  • Download torrent
  • Direct Download
  • Rate this torrent +  |  -
Teenage Mutant Ninja Turtles 3D 2014 1080p HSBS BRRip x264 Hun Eng

Download Anonymously! Get Protected Today And Get your 70% discount


Torrent info

Name:Teenage Mutant Ninja Turtles 3D 2014 1080p HSBS BRRip x264 Hun Eng

Infohash: 5C4D47DB107E6176F72A4BF13A9CA2868E431877

Total Size: 3.39 GB

Seeds: 0

Leechers: 0

Stream: Watch Full Movie @ Movie4u

Last Updated: 2014-12-01 12:34:21 (Update Now)

Torrent added: 2014-12-01 12:34:21






Torrent Files List


Teenage Mutant Ninja Turtles 3D (2014) HSBS 1080p.mkv (Size: 3.39 GB) (Files: 1)

 Teenage Mutant Ninja Turtles 3D (2014) HSBS 1080p.mkv

3.39 GB
 

tracker

leech seeds
 

Torrent description

Teenage.Mutant.Ninja.Turtles.3D.2014.1080p.HSBS.BRRip.x264.Hun.Eng

http://www.imdb.com/title/tt1291150/General
Unique ID : 232159158117153350577888856238952262375 (0xAEA83A3A0AD61D9ABF3AD7A1A347AAE7)
Complete name : F:Teenage.Mutant.Ninja.Turtles.3D.2014.1080p.HSBS.BRRip.x264.Hun.EngTeenage Mutant Ninja Turtles 3D (2014) HSBS 1080p.mkv
Format : Matroska
Format version : Version 4 / Version 2
File size : 3.39 GiB
Duration : 1h 41mn
Overall bit rate : 4 789 Kbps
Encoded date : UTC 2014-12-01 10:36:13
Writing application : mkvmerge v7.2.0 (\'On Every Street\') 64bit built on Sep 13 2014 15:52:10
Writing library : libebml v1.3.0 + libmatroska v1.4.1
DURATION : 01:41:18.016000000
NUMBER_OF_FRAMES : 189938
NUMBER_OF_BYTES : 486241280
_STATISTICS_WRITING_APP : mkvmerge v7.2.0 (\'On Every Street\') 64bit built on Sep 13 2014 15:52:10
_STATISTICS_WRITING_DATE_UTC : 2014-12-01 10:36:13
_STATISTICS_TAGS : BPS DURATION NUMBER_OF_FRAMES NUMBER_OF_BYTES

Video
ID : 1
Format : AVC
Format/Info : Advanced Video Codec
Format profile : [email protected]
Format settings, CABAC : Yes
Format settings, ReFrames : 4 frames
Codec ID : V_MPEG4/ISO/AVC
Duration : 1h 41mn
Bit rate : 1 999 Kbps
Width : 1 920 pixels
Height : 1 080 pixels
Display aspect ratio : 16:9
Frame rate mode : Constant
Frame rate : 23.976 fps
Color space : YUV
Chroma subsampling : 4:2:0
Bit depth : 8 bits
Scan type : Progressive
Bits/(Pixel*Frame) : 0.040
Stream size : 1.35 GiB (40%)
Title : Teenage Mutant Ninja Turtles 3D (2014) HSBS 1080p
Writing library : x264 core 142 r2431 ac76440
Encoding settings : cabac=1 / ref=4 / deblock=1:-1:-1 / analyse=0x3:0x113 / me=umh / subme=9 / psy=1 / psy_rd=1.00:0.15 / mixed_ref=1 / me_range=24 / chroma_me=1 / trellis=2 / 8x8dct=1 / cqm=0 / deadzone=21,11 / fast_pskip=0 / chroma_qp_offset=-3 / threads=12 / lookahead_threads=1 / sliced_threads=0 / nr=0 / decimate=1 / interlaced=0 / bluray_compat=0 / constrained_intra=0 / bframes=3 / b_pyramid=2 / b_adapt=2 / b_bias=0 / direct=3 / weightb=1 / open_gop=0 / weightp=2 / keyint=240 / keyint_min=23 / scenecut=40 / intra_refresh=0 / rc_lookahead=60 / rc=2pass / mbtree=1 / bitrate=1999 / ratetol=1.0 / qcomp=0.60 / qpmin=0 / qpmax=69 / qpstep=4 / cplxblur=20.0 / qblur=0.5 / vbv_maxrate=31250 / vbv_bufsize=31250 / nal_hrd=none / filler=0 / ip_ratio=1.40 / aq=1:1.00
Default : Yes
Forced : No
Color primaries : BT.709
Matrix coefficients : BT.709

Audio #1
ID : 2
Format : AC-3
Format/Info : Audio Coding 3
Mode extension : CM (complete main)
Format settings, Endianness : Big
Codec ID : A_AC3
Duration : 1h 41mn
Bit rate mode : Constant
Bit rate : 640 Kbps
Channel(s) : 6 channels
Channel positions : Front: L C R, Side: L R, LFE
Sampling rate : 48.0 KHz
Bit depth : 16 bits
Compression mode : Lossy
Stream size : 464 MiB (13%)
Title : 5.1
Language : Hungarian
Default : Yes
Forced : No

Audio #2
ID : 3
Format : AC-3
Format/Info : Audio Coding 3
Mode extension : CM (complete main)
Format settings, Endianness : Big
Codec ID : A_AC3
Duration : 1h 41mn
Bit rate mode : Constant
Bit rate : 640 Kbps
Channel(s) : 6 channels
Channel positions : Front: L C R, Side: L R, LFE
Sampling rate : 48.0 KHz
Bit depth : 16 bits
Compression mode : Lossy
Stream size : 464 MiB (13%)
Title : 5.1
Language : English
Default : No
Forced : No

Audio #3
ID : 4
Format : DTS
Format/Info : Digital Theater Systems
Mode : 16
Format settings, Endianness : Big
Codec ID : A_DTS
Duration : 1h 41mn
Bit rate mode : Constant
Bit rate : 1 510 Kbps
Channel(s) : 6 channels
Channel positions : Front: L C R, Side: L R, LFE
Sampling rate : 48.0 KHz
Bit depth : 24 bits
Compression mode : Lossy
Stream size : 1.07 GiB (32%)
Title : DTS 5.1
Language : English
Default : No
Forced : No

http://www.port.hu/tini_nindzsa_teknocok_teenage_mutant_ninja_turtles/pls/fi/films.film_page?i_where=2&i_film_id=148321&i_city_id=-1&i_county_id=-1&i_topic_id=2

related torrents

Torrent name

health leech seeds Size
 


comments (0)

Main Menu