Movies - Other

Kadamban (2017) 720p UNCUT HDRip x264 [Dual Audio] [Hindi (Cam) - Tamil 2 0] By [email protected]! mkv

  • Download Faster
  • Download torrent
  • Direct Download
  • Rate this torrent +  |  -
Kadamban (2017) 720p UNCUT HDRip x264 [Dual Audio] [Hindi (Cam) - Tamil 2 0] By [email protected]! mkv

Download Anonymously! Get Protected Today And Get your 70% discount


Torrent info

Name:Kadamban (2017) 720p UNCUT HDRip x264 [Dual Audio] [Hindi (Cam) - Tamil 2 0] By [email protected]! mkv

Infohash: 5D83242F1DAFB41F1AE548635768DAEFA8406666

Total Size: 1.22 GB

Seeds: 2

Leechers: 0

Stream: Watch Full Movie @ Movie4u

Last Updated: 2020-02-19 12:48:36 (Update Now)

Torrent added: 2017-07-20 20:40:15






Torrent Files List


Kadamban (2017) 720p UNCUT HDRip x264 [Dual Audio] [Hindi (Cam) - Tamil 2.0] By [email protected]!.mkv (Size: 1.22 GB) (Files: 1)

 Kadamban (2017) 720p UNCUT HDRip x264 [Dual Audio] [Hindi (Cam) - Tamil 2.0] By [email protected]!.mkv

1.22 GB
 

tracker

leech seeds
 

Torrent description

..::File Specs::..

Format : Matroska
Format version : Version 4 / Version 2
File size : 1.22 GiB
Duration : 2 h 11 min
Overall bit rate : 1 327 kb/s

Audio #1
ID : 2
Format : MPEG Audio
Format version : Version 1
Format profile : Layer 3
Codec ID : A_MPEG/L3
Codec ID/Hint : MP3
Duration : 2 h 11 min
Bit rate mode : Constant
Bit rate : 128 kb/s
Channel(s) : 2 channels
Sampling rate : 44.1 kHz
Frame rate : 38.281 FPS (1152 spf)
Compression mode : Lossy
Stream size : 121 MiB (10%)
Writing library : LAME3.99.5
Language : Hindi
Default : Yes
Forced : Yes

Audio #2
ID : 3
Format : AAC
Format/Info : Advanced Audio Codec
Format profile : LC
Codec ID : A_AAC
Duration : 2 h 11 min
Bit rate : 128 kb/s
Channel(s) : 2 channels
Channel positions : Front: L R
Sampling rate : 44.1 kHz
Frame rate : 43.066 FPS (1024 spf)
Compression mode : Lossy
Stream size : 120 MiB (10%)
Language : Tamil
Default : No
Forced : No

::::ScreenShots::::
https://extraimage.net/images/2017/05/21/6f168c210a9d97ed225288e2c10a4f27.th.png
https://extraimage.net/images/2017/05/21/fef2981cbabcdb8adcadc2d4ff065ed7.th.png
https://extraimage.net/images/2017/05/21/08816309af61b2c92e78ed1b412c0205.th.png
https://extraimage.net/images/2017/05/21/041f0cded46f174655291b504006aeb6.th.png

related torrents

Torrent name

health leech seeds Size
 


comments (0)

Main Menu