Movies - Other

The Devil's Advocate m4v

  • Download Faster
  • Download torrent
  • Direct Download
  • Rate this torrent +  |  -
The Devil's Advocate m4v

Download Anonymously! Get Protected Today And Get your 70% discount


Torrent info

Name:The Devil's Advocate m4v

Infohash: 179C36D4DE34952452E311DA3A3D35CC9E2EF960

Total Size: 790.06 MB

Seeds: 0

Leechers: 0

Stream: Watch Full Movie @ Movie4u

Last Updated: 2021-05-17 19:57:12 (Update Now)

Torrent added: 2012-09-17 08:36:13






Torrent Files List


The Devil's Advocate.m4v (Size: 790.06 MB) (Files: 1)

 The Devil's Advocate.m4v

790.06 MB
 

Announce URL:

Torrent description

http://www.imdb.com/title/tt0118971/


Format : MPEG-4
Format profile : Base Media / Version 2
Codec ID : mp42
File size : 790 MiB
Duration : 2h 23mn
Overall bit rate mode : Variable
Overall bit rate : 767 Kbps
Encoded date : UTC 2012-09-12 22:01:36
Tagged date : UTC 2012-09-12 22:53:55
Writing application : HandBrake 0.9.8 2012071800
Video
ID : 1
Format : AVC
Format/Info : Advanced Video Codec
Format profile : [email protected]
Format settings, CABAC : Yes
Format settings, ReFrames : 4 frames
Codec ID : avc1
Codec ID/Info : Advanced Video Coding
Duration : 2h 23mn
Bit rate mode : Variable
Bit rate : 598 Kbps
Width : 1 280 pixels
Height : 528 pixels
Display aspect ratio : 2.40:1
Frame rate mode : Variable
Frame rate : 23.976 fps
Minimum frame rate : 23.810 fps
Maximum frame rate : 100.000 fps
Color space : YUV
Chroma subsampling : 4:2:0
Bit depth : 8 bits
Scan type : Progressive
Bits/(Pixel*Frame) : 0.037
Stream size : 616 MiB (78%)
Writing library : x264 core 120
Encoding settings : cabac=1 / ref=1 / deblock=1:0:0 / analyse=0x1:0x111 / me=hex / subme=2 / psy=1 / psy_rd=1.00:0.00 / mixed_ref=0 / me_range=16 / chroma_me=1 / trellis=0 / 8x8dct=0 / cqm=0 / deadzone=21,11 / fast_pskip=1 / chroma_qp_offset=0 / threads=6 / sliced_threads=0 / nr=0 / decimate=1 / interlaced=0 / bluray_compat=0 / constrained_intra=0 / bframes=3 / b_pyramid=2 / b_adapt=1 / b_bias=0 / direct=1 / weightb=1 / open_gop=0 / weightp=1 / keyint=240 / keyint_min=24 / scenecut=40 / intra_refresh=0 / rc_lookahead=10 / rc=crf / mbtree=1 / crf=25.5 / qcomp=0.60 / qpmin=3 / qpmax=69 / qpstep=4 / ip_ratio=1.40 / aq=1:1.00
Encoded date : UTC 2012-09-12 22:01:36
Tagged date : UTC 2012-09-12 22:53:55
Color primaries : BT.709-5, BT.1361, IEC 61966-2-4, SMPTE RP177
Transfer characteristics : BT.709-5, BT.1361
Matrix coefficients : BT.709-5, BT.1361, IEC 61966-2-4 709, SMPTE RP177
Audio
ID : 2
Format : AAC
Format/Info : Advanced Audio Codec
Format profile : LC
Codec ID : 40
Duration : 2h 23mn
Bit rate mode : Variable
Bit rate : 164 Kbps
Maximum bit rate : 254 Kbps
Channel(s) : 2 channels
Channel positions : Front: L R
Sampling rate : 48.0 KHz
Compression mode : Lossy
Stream size : 169 MiB (21%)
Language : English






If you have any requests please leave them at my Suprbay forum, from now on i will

disregard any requests left on here


https://forum.suprbay.org/showthread.php?tid=130110






ENCODED BY THE HAMBURGLER


Please Comment On Quality And Seed

Sharing Is Caring

related torrents

Torrent name

health leech seeds Size
 


comments (0)

Main Menu